#TITLE:Sonic the Hedgehog 3;
#SUBTITLE:- Act 2 Boss;
#ARTIST:Rock Lee;
#TITLETRANSLIT:;
#SUBTITLETRANSLIT:;
#ARTISTTRANSLIT:;
#CREDIT:;
#BANNER:Sonic.JPG;
#BACKGROUND:sgffe.bmp;
#LYRICSPATH:;
#CDTITLE:;
#MUSIC:Sonic the Hedgehog 3 - Act 2 Boss.mp3;
#OFFSET:0.000;
#SAMPLESTART:28.571;
#SAMPLELENGTH:12.000;
#SELECTABLE:YES;
#BPMS:0.000=210.001;
#STOPS:;
#BGCHANGES:0.000=sgffe.bmp=1.000=0=0=1,
99999=-nosongbg-=1.000=0=0=0 // don't automatically add -songbackground-
;
// cache tags:
#FIRSTBEAT:0.000;
#LASTBEAT:260.500;
#SONGFILENAME:Songs/nhac/Sonic the Hedgehog 3 - Act 2 Boss/Sonic the Hedgehog 3 - Act 2 Boss.sm;
#HASMUSIC:1;
#HASBANNER:1;
#MUSICLENGTH:74.657;
// end cache tags

//---------------dance-single - ----------------
#NOTES:
     dance-single:
     :
     Challenge:
     11:
     1.000,1.000,1.000,1.000,0.214,441.000,107.000,119.000,0.000,26.000:
1001
0100
0110
1000
0011
0010
1100
0001
,
0110
0100
1100
0010
0011
0022
0000
0000
,
0033
2200
0000
0000
3300
0000
1001
0010
,
0110
1000
0110
0001
0110
0100
0011
0100
,
1100
0010
2200
0000
3300
0000
0220
0000
,
0330
0100
0001
1000
0100
0200
1000
1000
,
1300
0000
0100
1000
0100
1000
0000
0000
0200
0000
0010
0000
0320
0000
0001
0000
,
0032
0000
0010
0000
1003
0000
0100
0000
0100
0001
0010
0001
0010
0000
0000
0000
,
0020
0000
0001
0000
0230
0000
1000
0000
1300
0000
0100
0000
1000
0000
1000
0010
,
0100
0010
1000
0000
2000
0000
3110
0000
0002
0000
0010
0000
0100
0000
0100
0000
,
1003
0000
1000
0000
0100
0010
0100
0000
0100
0000
1000
0000
0100
0000
0110
0000
,
1000
0000
0100
0000
2001
0000
0000
0000
3010
0000
0010
0000
0100
0010
1000
0100
,
0000
0010
0001
0002
0000
0000
1103
0100
,
0100
0000
1000
0100
0010
0000
0000
0100
0020
0000
0000
0000
0032
0000
0000
0000
,
2003
0000
0100
3000
0010
0000
0110
0000
0010
0000
0011
0000
0100
0000
1100
0000
,
0010
0110
0100
0110
0001
1001
1000
0100
,
0022
0000
0000
0033
0100
0000
1002
1000
,
2003
0100
0100
0210
3010
0010
0312
0010
,
0020
0000
0000
0000
0233
0000
0000
0000
1300
0000
1000
0000
1000
0100
1000
0000
,
1002
0100
0013
2200
0010
3310
0010
0001
,
0001
0100
0010
0000
0100
0000
0000
0000
2001
0000
0100
0000
3010
0000
0000
0000
,
0110
0022
0133
1000
2202
0000
0000
0000
,
0000
3303
0000
0000
0000
0000
0110
0000
0001
0000
0100
0000
1000
0000
0200
0000
,
0010
0012
0300
0010
0023
0200
0330
2000
,
3200
0300
0020
0032
2003
3220
0330
0000
,
2000
0200
3320
0032
0003
0002
0023
0000
,
0230
1300
2000
3200
0320
0032
0023
0030
,
1101
2200
0000
3300
,
1001
0010
1100
0011
0110
1000
0110
0001
,
0110
0011
1000
0110
0010
0100
2200
3300
,
2102
0000
0000
0000
0000
3003
0000
1000
,
1001
0110
0100
0011
0010
0010
1100
1001
,
0010
1001
1001
0110
2001
0000
3000
0000
,
1201
0000
0010
0010
0310
0000
1000
1000
,
1000
0000
1000
0100
0000
0100
0000
0000
0110
0000
0000
0000
0011
0000
0000
0000
,
0110
0000
0010
0000
0100
0000
0100
0000
0100
0010
0001
0000
2000
0000
0000
0000
,
3200
0000
0320
0030
1000
0010
0100
1000
,
1000
0010
0001
0000
0120
0000
0130
0000
2200
0000
3310
0000
0120
0000
0130
0000
,
1000
0000
0010
0000
0001
0000
0100
0010
1000
0000
0100
0000
0010
0000
0100
0000
,
0012
0000
0010
0000
0013
0000
1000
0000
0010
0000
0100
0000
1000
0100
1000
0000
,
0011
0000
2000
3100
0002
0013
0100
0100
,
1000
0000
1000
0100
0002
0000
0000
0000
0023
0000
0000
0000
0230
0000
0000
0000
,
2300
0000
3001
0000
0110
0000
0010
0000
1000
0100
0100
0000
0010
0000
0010
0000
,
0001
0001
0100
0110
1100
0001
0110
0010
,
0001
0100
1000
0100
0000
0000
0022
0000
1033
0000
0000
0000
2000
0000
0100
0000
,
3020
0031
0200
0310
2000
3100
0200
0310
,
0002
0003
0200
0310
2000
3100
0020
0031
,
0200
0310
2000
0100
3000
0000
2000
0100
,
3000
0000
0200
0001
0300
0200
0310
0010
,
2202
0010
3313
0020
0000
2000
0000
0000
,
0000
0000
0000
0000
3030
0000
0100
0000
0100
0000
0011
0000
0100
0000
0100
0100
,
1000
0100
0000
0010
0001
0100
0010
0000
0010
0000
0100
0000
1001
0000
0110
0000
,
0010
0000
0100
0000
0100
0001
0010
0000
0100
1000
0010
0000
0100
0000
0110
0000
,
0001
0000
0100
0000
0000
0000
1101
0000
0010
0000
0100
0000
1000
0100
0001
0000
,
0100
0010
1000
0000
0100
0000
0010
0000
0110
0000
0001
0000
0010
0000
0010
0000
,
1000
0100
0010
0000
0011
0000
0011
0000
0100
0000
0010
0000
0110
0000
0110
0000
,
1001
0010
1100
0010
0011
0100
0100
0011
,
0100
0011
0010
1100
0010
1200
0300
0000
,
2102
0000
3003
0000
0110
0110
0000
1010
,
0100
1101
0110
1101
0010
0101
0001
0110
,
0110
0001
0010
1100
0010
0000
1102
0000
,
0000
0000
0003
0000
0000
2000
0000
0000
,
0000
0000
3000
0200
0320
0032
0203
0320
,
2030
3000
0200
0300
0002
2003
3000
0000
,
2000
0000
0000
0000
3100
0010
0110
0110
,
0001
0010
0000
0000
0000
0000
0000
0000
;
